آدرس جدید سایت
http://mrmooviez.xyz
جهت اطلاع از آخرین پست های ارسالی سایت و دریافت آدرس بدون فیلتر سایت عضو کانال تلگرام مستر_موویز به آدرس زیر شوید
@MrMoviez1397
با سلام خدمت کاربران و دنبال کنندگان وبسایت مستر موویز، سرعت دانلود برخی از فیلم ها تا روز یکشنبه کند خواهد بود. گروه مستر موویز در تلاش برای برطرف کردن این مشکل است، از صبر و شکیبایی شما سپاس گزاریم

دانلود فیلم ایرانی مجازات محصول سال ۱۳۵۴

دی ۱۲, ۱۳۹۷
فیلم ایرانی مجازات
  • زبان :فارسی کیفیت :DVDrip
  • فرمت :mp4 حجم :953 مگابایت
  • مدت زمان :115 دقیقه محصول :ایران
  • کارگردان :مهدی فخیم زاده نویسنده :مهدی فخیم زاده
  • ستارگان :بهمن مفید - هاله - مهدی فخیم زاده - حسین گیل - احمد معینی - هدی - داداشی - محمود - مصطفی - چنگیزی - شهرام ثمینی پور
  • Fa
  • En
هاشم بلندپرواز (بهمن مفيد) و دوستش رضا جيرجير (حسين گيل) دست به سرقت مي زنند. هاشم به دست مردم گرفتار و حبس مي شود. رضا به همسر هاشم علاقه دارد و فرزند او جعفر (شهرام ثميني پور)، در واقع از او است. هاشم آزاد مي شود و همسرش را …
به این پست امتیاز دهید.
دانلود فیلم ایرانی مجازات محصول سال ۱۳۵۴
4 از 3 رای
  • دیدگاها ، پس از تایید مدیران سایت منتشر خواهند شد.
  • دیدگاهای انگلیسی یا غیر مرتبط با مطلب منتشر نخواهند شد.

علی
یکشنبه , ۲۸ بهمن ۱۳۹۷
پاسخ دهيد

با سلام وخسته نباشید خدمت اقا مصطفی میخواستم تشکر کنم سایت خوب شده مخصوصا که نمونه کیفیت فیلمهای ایرانی رو گذاشتید

Mostafa
یکشنبه , ۲۸ بهمن ۱۳۹۷
پاسخ دهيد

خیلی ممنون

علی
سه شنبه , ۲۰ فروردین ۱۳۹۸
پاسخ دهيد

سلام چیشد اقا مصطفی فیلم شرور رو مگه نداشتین

Mostafa
سه شنبه , ۲۰ فروردین ۱۳۹۸
پاسخ دهيد

سلام
این فیلم را قرار بوده برام بفرستن هنوز نفرستادن
به دست برسه قرار میدم

علی
سه شنبه , ۲۷ فروردین ۱۳۹۸
پاسخ دهيد

سلام لطفا اقا مصطفی پیگیر فیلم شرور باشید

Mostafa
چهارشنبه , ۲۸ فروردین ۱۳۹۸
پاسخ دهيد

سلام
فعلا که خبری نشده

علی
دوشنبه , ۲ اردیبهشت ۱۳۹۸
پاسخ دهيد

سلام خسته نباشید اقا مصطفی لطفا ببینید فیلم رو داره یانه

Mostafa
دوشنبه , ۲ اردیبهشت ۱۳۹۸
پاسخ دهيد

سلام چند روزه جواب نمیده

علی
دوشنبه , ۹ اردیبهشت ۱۳۹۸
پاسخ دهيد

سلام خسته نباشید اقا مصطفی فیلم در امتداد شب کیفیت بالاش رو ندارین راستی فیلم شرور چیشد

Mostafa
دوشنبه , ۹ اردیبهشت ۱۳۹۸
پاسخ دهيد

سلام نه کیفیت بالاتر از اینایی که قرار دادم ندارم
اون کسی که قرار بوده این فیلم را به دستم برساند کلا از دسترس خارج شده
اگر بتونم پیدا کنم حتما قرار میدم

علی
شنبه , ۲۱ اردیبهشت ۱۳۹۸
پاسخ دهيد

سلام خسته نباشید فیلم شرور هنوز پیدا نشده

solaris
شنبه , ۲۱ اردیبهشت ۱۳۹۸
پاسخ دهيد

خیر قربان.
در تلاش برای یافتنیم…

فیلم شرور
یکشنبه , ۲۲ اردیبهشت ۱۳۹۸
پاسخ دهيد

سلام فیلم شرور را من دارم.

solaris
یکشنبه , ۲۲ اردیبهشت ۱۳۹۸
پاسخ دهيد

با چه کیفیتی ست و چطور میتوان با شما ارتباط گرفت برای دریافت فیلم

فیلم شرور
یکشنبه , ۲۲ اردیبهشت ۱۳۹۸

مشخصات
General
Complete name : شرور.mp4
Format : MPEG-4
Format profile : Base Media / Version 2
Codec ID : mp42 (isom/mp42)
File size : 350 MiB
Duration : 1 h 32 min
Overall bit rate mode : Variable
Overall bit rate : 529 kb/s
Encoded date : UTC 2014-09-11 01:47:24
Tagged date : UTC 2014-09-11 01:47:24

Video
ID : 1
Format : AVC
Format/Info : Advanced Video Codec
Format profile : Baseline@L2.1
Format settings : 1 Ref Frames
Format settings, CABAC : No
Format settings, ReFrames : 1 frame
Format settings, GOP : M=1, N=60
Codec ID : avc1
Codec ID/Info : Advanced Video Coding
Duration : 1 h 32 min
Bit rate : 431 kb/s
Maximum bit rate : 1 370 kb/s
Width : 420 pixels
Height : 284 pixels
Display aspect ratio : 3:2
Frame rate mode : Constant
Frame rate : 25.000 FPS
Color space : YUV
Chroma subsampling : 4:2:0
Bit depth : 8 bits
Scan type : Progressive
Bits/(Pixel*Frame) : 0.144
Stream size : 285 MiB (81%)
Tagged date : UTC 2014-09-11 01:48:35
Codec configuration box : avcC

Audio
ID : 2
Format : AAC LC
Format/Info : Advanced Audio Codec Low Complexity
Codec ID : mp4a-40-2
Duration : 1 h 32 min
Bit rate mode : Variable
Bit rate : 96.0 kb/s
Maximum bit rate : 103 kb/s
Channel(s) : 2 channels
Channel layout : L R
Sampling rate : 44.1 kHz
Frame rate : 43.066 FPS (1024 SPF)
Compression mode : Lossy
Stream size : 63.5 MiB (18%)
Title : IsoMedia File Produced by Google, 5-11-2011
Encoded date : UTC 2014-09-11 01:47:59
Tagged date : UTC 2014-09-11 01:48:35
حجمش ۳۵۰مگا بایت است ساعت یک شب به بعد که اینترنت رایگان دارم جایی آپلود می کنم و آدرسش را ارسال میکنم تا همه استفاده ببرند.

solaris
یکشنبه , ۲۲ اردیبهشت ۱۳۹۸

ازت ممنونم
به حساب کاربری زیر تلگرام کنید…
@MrMoviez1397

فیلم شرور
یکشنبه , ۲۲ اردیبهشت ۱۳۹۸

سایت mediafire حساب داشتم که پولی شده خودتان راهی معرفی کنید تا بفرستم.

solaris
یکشنبه , ۲۲ اردیبهشت ۱۳۹۸

به حساب کاربری زیر تلگرام کنید…
با سپاس فراوان از شما دوست ارجمند

@MrMoviez1397

فیلم شرور
یکشنبه , ۲۲ اردیبهشت ۱۳۹۸

ساعت یک شب به بعد که اینترنت رایگان دارم ارسال می کنم.

راد
چهارشنبه , ۲۵ اردیبهشت ۱۳۹۸
پاسخ دهيد

سلام . جناب فیلم دور دنیا با جیب خالی رو دارین . و یا از کجا نیتونن دان کنن ممنون میشم جواب بدین

Mostafa
چهارشنبه , ۲۵ اردیبهشت ۱۳۹۸
پاسخ دهيد

سلام
نه، متاسفانه این فیلم رو ندارم

امارگیر وبلاگامارگیر سایتتقویم و ساعت
مشاهده آمار وبسایت